请选择 进入手机版 | 继续访问电脑版

超清视界

 找回密码
 加入我们
搜索
查看: 283|回复: 19

[TV] [原创自购][Trigun枪神][TV版26集全]国日双语/中文繁体字幕/英文字幕][8DISC/DVD5/33.6G][百度网盘]

[复制链接]
  • TA的每日心情
    开心
    昨天 02:24
  • 签到天数: 146 天

    [LV.7]常住居民III

    33

    主题

    449

    帖子

    612

    积分

    发布组

    Rank: 7Rank: 7Rank: 7

    积分
    612
    发表于 2019-9-6 11:31:57 | 显示全部楼层 |阅读模式
    ◎译  名 枪神 / TRIGUN
    ◎片  名 トライガン
    ◎年  代 1998
    ◎产  地 日本
    ◎类  别 喜剧 / 动作 / 科幻 / 动画 / 西部
    ◎语  言 塔加路语 / 西班牙语 / 意大利语 / 德语 / 法语 / 日语 / 英语
    ◎上映日期 1998-04-01
    ◎IMDb评分  8.3/10 from 17689 users
    ◎IMDb链接  http://www.imdb.com/title/tt0251439
    ◎豆瓣评分 8.6/10 from 2500 users
    ◎豆瓣链接 https://movie.douban.com/subject/2146820/
    ◎集  数 26
    ◎片  长 25分钟
    ◎导  演 西村聪
    ◎编  剧 黑田洋介 Yôsuke Kuroda
    ◎主  演 小野坂昌也 Masaya Onosaka
          鹤弘美
          雪野五月 Satsuki Yukino
          久川绫 Aya Hisakawa
          速水奖 Shô Hayami
          古澤徹
          关俊彥 Toshihiko Seki


    ◎标  签 动画 | 日本动画 | 日本 | 经典 | 动漫 | 枪战 | trigun | Anime

    ◎简  介  

      《枪神》根据由内藤泰弘先生的漫画原作漫画版TRIGUN(トライガン)改编。
    故事从梅丽鲁和米丽——两位自称来自贝露那堤保险协会的少女,缉拿“世纪大飓风”的线索开始。可当她们两人遇到这个“红色衣服,金色头发,耳边还有耳环”的法修史坦毕特之后,根本无法想象他就是“传说中使一 个城市一夜间完全毁灭的危险人物,最危险的通缉犯”。这个整天叫着“LOVE&PEACE”,爱甜甜圈如命的温柔男人怎么可能就是罪大恶极的法修。之后的旅行中他们互相照顾,帮助和保护了不少有困难的人,共同度过了不少险情,成为了很好的朋友。一切的平和直到GUNG-HO-GUNS的出现,一切都发生了改变,法修甚至开了杀戒。这个“与以灭绝人类为己任”超级杀手集团GUNG-HO-GUNS到底和法修有什么关系?他们又将面临怎样的挑战?

    General
    Complete name                  : F:\VIDEO_TS\VTS_02_1.VOB
    Format                         : MPEG-PS
    File size                      : 1 024 MiB
    Duration                       : 23 min 42 s
    Overall bit rate mode          : Variable
    Overall bit rate               : 6 040 kb/s

    Video
    ID                             : 224 (0xE0)
    Format                         : MPEG Video
    Format version                 : Version 2
    Format profile                 : Main@Main
    Format settings, BVOP          : Yes
    Format settings, Matrix        : Custom
    Format settings, GOP           : M=3, N=15
    Duration                       : 23 min 42 s
    Bit rate mode                  : Variable
    Bit rate                       : 5 151 kb/s
    Width                          : 720 pixels
    Height                         : 480 pixels
    Display aspect ratio           : 4:3
    Frame rate                     : 29.970 (30000/1001) FPS
    Standard                       : NTSC
    Color space                    : YUV
    Chroma subsampling             : 4:2:0
    Bit depth                      : 8 bits
    Compression mode               : Lossy
    Bits/(Pixel*Frame)             : 0.497
    Time code of first frame       : 00:00:00:00
    Time code source               : Group of pictures header
    GOP, Open/Closed               : Open
    GOP, Open/Closed of first fram : Closed
    Stream size                    : 873 MiB (85%)

    Audio #1
    ID                             : 189 (0xBD)-128 (0x80)
    Format                         : AC-3
    Format/Info                    : Audio Coding 3
    Format settings, Endianness    : Big
    Muxing mode                    : DVD-Video
    Duration                       : 23 min 41 s
    Bit rate mode                  : Constant
    Bit rate                       : 384 kb/s
    Channel(s)                     : 2 channels
    Channel positions              : Front: L R
    Sampling rate                  : 48.0 kHz
    Frame rate                     : 31.250 FPS (1536 SPF)
    Bit depth                      : 16 bits
    Compression mode               : Lossy
    Stream size                    : 65.1 MiB (6%)
    Service kind                   : Complete Main

    Audio #2
    ID                             : 189 (0xBD)-129 (0x81)
    Format                         : AC-3
    Format/Info                    : Audio Coding 3
    Format settings, Endianness    : Big
    Muxing mode                    : DVD-Video
    Duration                       : 23 min 41 s
    Bit rate mode                  : Constant
    Bit rate                       : 384 kb/s
    Channel(s)                     : 6 channels
    Channel positions              : Front: L C R, Side: L R, LFE
    Sampling rate                  : 48.0 kHz
    Frame rate                     : 31.250 FPS (1536 SPF)
    Bit depth                      : 16 bits
    Compression mode               : Lossy
    Stream size                    : 65.1 MiB (6%)
    Service kind                   : Complete Main

    Menu




    影片名称: 枪神 / TRIGUN
    集 数 :TV版26集全
    格式容量:DVDISO/约33.6GB
    语言字幕:国日双语/中文繁体字幕/英文字幕
    网 盘 :百度网盘
    死档时间:看百度心情

    本帖子中包含更多资源

    您需要 登录 才可以下载或查看,没有帐号?加入我们

    x

    评分

    参与人数 1超清币 +100 收起 理由
    小白 + 100 赞一个!

    查看全部评分

  • TA的每日心情
    慵懒
    昨天 08:37
  • 签到天数: 241 天

    [LV.8]以坛为家I

    1

    主题

    534

    帖子

    576

    积分

    中级法师

    Rank: 6Rank: 6

    积分
    576
    发表于 2019-9-6 13:37:59 | 显示全部楼层
    没看过这部动漫耶,感谢楼主大力分享哈

  • TA的每日心情
    开心
    昨天 17:27
  • 签到天数: 16 天

    [LV.4]偶尔看看III

    2

    主题

    54

    帖子

    58

    积分

    中级卫兵

    Rank: 3Rank: 3

    积分
    58
    发表于 2019-9-6 14:47:41 | 显示全部楼层
    看样子挺好看的,支持新帖。

  • TA的每日心情
    开心
    昨天 19:19
  • 签到天数: 306 天

    [LV.8]以坛为家I

    51

    主题

    1016

    帖子

    1064

    积分

    兽人骑士

    Rank: 8Rank: 8

    积分
    1064
    发表于 2019-9-6 16:11:39 | 显示全部楼层
    国语版还没看过,谢谢楼主

  • TA的每日心情

    昨天 12:30
  • 签到天数: 24 天

    [LV.4]偶尔看看III

    0

    主题

    105

    帖子

    107

    积分

    高级卫兵

    Rank: 4

    积分
    107
    发表于 2019-9-6 16:52:10 | 显示全部楼层
    非常经典的一部动画
    感谢分享

  • TA的每日心情
    奋斗
    昨天 01:59
  • 签到天数: 119 天

    [LV.6]常住居民II

    1

    主题

    634

    帖子

    650

    积分

    中级法师

    Rank: 6Rank: 6

    积分
    650
    发表于 2019-9-6 16:55:40 | 显示全部楼层
    自从看了枪王之后, 想看看这个枪神了

  • TA的每日心情
    郁闷
    昨天 20:38
  • 签到天数: 22 天

    [LV.4]偶尔看看III

    2

    主题

    255

    帖子

    262

    积分

    初级法师

    Rank: 5Rank: 5

    积分
    262
    发表于 2019-9-6 17:53:17 | 显示全部楼层
    沒看過這部,但被精華主題吸引過來了

  • TA的每日心情

    昨天 23:20
  • 签到天数: 10 天

    [LV.3]偶尔看看II

    29

    主题

    44

    帖子

    1050

    积分

    兽人骑士

    Rank: 8Rank: 8

    积分
    1050
    发表于 2019-9-6 17:53:37 | 显示全部楼层
    不错不错 非常感谢 分享

  • TA的每日心情
    开心
    昨天 10:57
  • 签到天数: 310 天

    [LV.8]以坛为家I

    0

    主题

    1923

    帖子

    2058

    积分

    骑士队长

    Rank: 10Rank: 10Rank: 10

    积分
    2058
    发表于 2019-9-6 19:15:51 | 显示全部楼层
    乍一看以为是地下城的神枪手呢,感谢分享

  • TA的每日心情
    开心
    昨天 17:11
  • 签到天数: 11 天

    [LV.3]偶尔看看II

    2

    主题

    41

    帖子

    52

    积分

    中级卫兵

    Rank: 3Rank: 3

    积分
    52
    发表于 2019-9-6 22:13:25 | 显示全部楼层
    Trigun枪神,时代的经典,这资源让人不禁泪下

    您需要登录后才可以回帖 登录 | 加入我们

    本版积分规则

    Archiver|手机版|小黑屋|超清视界 超清视界官方群

    GMT+8, 2019-9-17 01:03 , Processed in 0.062523 second(s), 26 queries .

    Powered by Discuz! X3.4

    © 2001-2013 Comsenz Inc.

    快速回复 返回顶部 返回列表